#TITLE:Super Mario Galaxy;
#SUBTITLE:Bowser Theme;
#ARTIST:Nintendo/Mistergame;
#TITLETRANSLIT:;
#SUBTITLETRANSLIT:;
#ARTISTTRANSLIT:;
#CREDIT:Mistergame;
#BANNER:NVBOWSER300-banner.png;
#BACKGROUND:NVBOWSER300-bg.png;
#LYRICSPATH:;
#CDTITLE:SMG.png;
#MUSIC:NVBOWSER.mp3;
#OFFSET:0.000;
#SAMPLESTART:20.000;
#SAMPLELENGTH:12.000;
#SELECTABLE:YES;
#BPMS:0.000=300.000;
#STOPS:;
#BGCHANGES:;
// cache tags:
#FIRSTBEAT:0.000;
#LASTBEAT:136.000;
#SONGFILENAME:Songs/Music V.I.P ^_^/NVBOWSER 300/NVBOWSER.sm;
#HASMUSIC:1;
#HASBANNER:1;
#MUSICLENGTH:67.212;
// end cache tags

//---------------dance-single - ----------------
#NOTES:
     dance-single:
     :
     Beginner:
     1:
     0.183,0.177,0.089,0.357,0.000,56.000,6.000,24.000,0.000,0.000:
2000
0000
3020
0000
,
0000
0000
0000
0030
,
0002
0000
0000
0003
,
0200
0000
0000
0300
,
0000
0001
0000
1000
,
0100
0000
0000
0000
,
0001
0100
0100
0001
,
0000
0100
0000
0001
,
0100
1000
0000
0000
,
2002
0000
0000
0000
,
0000
3003
0000
0100
,
0000
0001
1000
0100
,
0001
1000
0000
0100
,
0000
0100
0100
0100
,
0002
0000
0003
1000
,
0000
0001
0000
1000
,
2000
0000
0000
0000
,
3000
0002
0000
0000
,
0000
0003
2200
0000
,
0000
3300
0022
0000
,
0000
0000
0000
0033
,
0000
0000
2002
0000
,
0000
0000
0000
0000
,
0000
0000
3003
0220
,
0000
0000
0330
0000
,
0100
0100
0001
0020
,
0030
0100
0000
0001
,
0000
0002
0100
0100
,
0103
0000
0000
0000
,
2000
0000
3001
0000
,
0001
0000
2001
0000
,
0002
0000
0003
0200
,
0000
0300
0002
0000
,
0000
0003
0001
0001
,
3001
0000
0000
0000
;

//---------------dance-single - ----------------
#NOTES:
     dance-single:
     :
     Easy:
     2:
     0.191,0.270,0.119,0.179,0.000,70.000,8.000,12.000,0.000,0.000:
2000
3000
0001
1000
,
0000
0120
0000
0030
,
0001
0001
0001
0001
,
1000
0001
1001
0100
,
0001
0000
1000
0000
,
1000
0000
0002
0000
,
0003
2000
0000
3000
,
0200
0001
0000
1000
,
0000
0001
0000
0010
,
0301
0100
0000
0100
,
0100
0100
0000
0000
,
0001
1000
0000
2002
,
0000
0000
0000
0000
,
3003
0100
1000
0001
,
2000
0002
0000
0000
,
3003
0000
1000
0001
,
2000
0000
0000
0001
,
0002
0003
0000
0000
,
0100
0000
0001
0000
,
0010
0000
0000
3010
,
0000
0000
1001
0001
,
0001
1001
1000
1000
,
1001
0001
0001
0010
,
0010
0010
0110
0100
,
0100
0100
0100
0000
,
2001
0000
0100
0000
,
0000
0000
0000
0000
,
0001
0000
0000
0000
,
0000
0001
0000
0000
,
0000
0100
0000
0000
,
0000
0001
0000
0000
,
0001
0000
0000
0000
,
0100
0000
0000
0000
,
3001
0000
0000
0000
;

//---------------dance-single - ----------------
#NOTES:
     dance-single:
     :
     Medium:
     8:
     0.750,1.000,0.357,1.000,0.744,197.000,24.000,132.000,0.000,9.000:
1000
0100
0010
0001
1000
0001
0000
2002
0000
0000
0000
0000
0000
0000
0000
0000
,
0000
3003
0000
0000
0100
0000
0001
1000
0000
0000
0001
0000
0000
0000
0100
0000
,
0000
0001
0000
1000
0100
0000
0001
0100
1000
0000
0000
0001
1000
0000
0100
0001
,
0000
0100
1000
0000
0001
0000
1001
0100
0000
2002
0000
0000
0000
0000
3003
0200
,
0000
0000
0000
0001
0000
0000
1000
0000
0000
0001
0000
0000
0010
0000
0000
1000
,
0000
0000
0301
0000
1000
0000
0100
0001
1000
0001
0100
0001
0100
0000
0000
1000
,
0000
0000
0001
1000
0000
0001
1100
0000
0001
0100
0000
0000
0100
0100
0001
1000
,
0001
1000
0001
0100
0000
0000
0001
0000
0100
0100
0100
2002
0000
0000
0000
0000
,
0000
0000
0000
0000
0200
0300
0000
0000
0000
0000
0000
3003
0000
0100
0200
0300
,
0100
0000
0000
0000
0200
0300
0200
0302
0000
0203
0301
0202
0303
0101
0002
0203
,
2300
3200
0310
0000
0002
2003
3002
0203
0000
0300
0210
1302
2203
3320
0030
0102
,
2103
3000
1020
0030
1002
2003
3020
2030
3000
0000
0000
0000
0000
2002
0000
0000
,
0000
3003
0000
0000
0000
2000
3000
0000
0000
0002
0003
0000
0000
0100
0000
0000
,
0000
0000
1000
0000
0000
0001
0000
0200
0300
0020
0030
1200
0300
0000
0000
0000
,
0000
0000
0001
0000
0100
2000
3000
0020
0030
0000
0000
0002
0003
0200
0300
0000
,
0100
2000
3000
0002
0000
0203
0302
0003
2200
3320
0030
0000
0000
0002
0003
0200
,
0300
2000
3000
0000
0200
0000
0320
0030
0002
0003
2000
3200
0000
0302
0000
0003
,
2000
3000
0200
0300
0001
0200
0000
0300
0002
0003
1200
0000
0300
0002
0003
2200
,
0300
3020
0030
0000
0002
0003
2000
3000
0200
0302
0003
0000
2000
3000
0000
0000
,
0000
0000
2000
3000
0000
1000
0000
0000
0000
0000
0000
0000
0000
2000
3000
0000
,
2000
3000
0000
0000
0000
0000
0000
0000
2000
3000
0200
0300
0022
0030
0203
0000
,
2300
3010
0000
0000
0000
0000
0000
0200
0300
0020
0030
0002
0003
0002
0003
0002
,
0003
0002
0003
0002
0003
0002
2003
3000
0002
0003
0000
0002
2003
3002
2003
3002
,
2003
3002
2003
3002
0203
0000
0320
0030
0020
0230
0300
2002
3000
2203
3000
0000
,
0000
2300
3000
0000
2002
0000
0000
0000
0000
0000
0200
0300
0000
0000
0000
0000
,
0000
0000
0000
0000
0000
0000
0000
3000
0000
0000
0000
0000
0100
0000
0000
0000
,
0000
0000
0000
0020
0030
0000
0000
0000
0000
0000
2000
3000
0000
0000
0000
0000
,
0100
0000
0000
0000
1200
0300
0000
0000
0000
0000
0000
0000
0020
0030
0000
0000
,
0000
2000
3000
0000
0000
0100
0000
0000
0000
0020
0030
0000
0000
2000
3000
0000
,
0020
0030
0000
0200
0300
2000
0000
3000
0000
0000
0020
0030
0000
0000
2000
3000
,
0000
0000
0100
0000
0000
0020
0030
0000
2000
3000
0000
0000
0000
0020
0000
0030
,
0000
0000
0000
0000
0000
2000
0000
0000
0000
0000
0000
0000
0000
0000
0000
0000
,
0000
0000
0000
0000
0000
0000
0000
3003
;

//---------------dance-single - ----------------
#NOTES:
     dance-single:
     :
     Hard:
     12:
     0.536,1.000,0.164,1.000,0.617,164.000,11.000,77.000,0.000,4.000:
2000
3000
0001
1000
,
0000
0120
0000
0030
,
0001
0001
0001
0001
,
1000
0001
1001
0100
,
0001
0000
0000
0000
0000
0000
0000
0000
0000
0000
0000
0000
0000
0000
0000
0000
0000
1100
1100
0000
0000
0000
0001
0000
0000
0000
0002
0003
0000
0002
0003
0000
1000
0000
0000
0000
0000
0000
0000
0000
0020
0030
0000
0000
0000
0200
0300
0000
0002
0003
0000
0200
0300
0000
0000
2000
3000
0000
0000
0000
0000
0000
0000
0000
,
1000
0000
0000
0000
0002
0003
2000
3000
0000
0200
0300
0000
0002
0003
0200
0300
2000
3000
0200
0320
0030
0000
0000
0000
0000
0000
0000
0002
0003
0000
0000
0000
0002
0000
0000
0000
0000
0000
0000
0000
0000
0000
0000
0000
0000
0000
0000
0000
0000
0000
0000
0000
0200
0000
2300
3020
0030
0000
0000
0000
0000
0000
0000
0000
,
0003
0000
0002
0203
0300
0000
0000
0000
0000
0000
1000
0000
0002
0003
0000
0000
2000
0000
0001
0002
0003
0001
0002
0003
0001
0001
0001
0001
0001
0001
0001
0001
0001
0001
0002
0003
0001
0001
0000
0002
0003
0001
0000
0002
0003
0000
0000
0000
3000
0000
0000
0000
0000
0000
0000
0000
0000
2000
3000
1000
1000
1000
1000
0000
,
0200
2000
3000
2000
3000
1000
0000
0000
2000
3000
1000
2000
3000
0000
2000
3000
0001
0000
0000
0000
0000
0000
0000
0000
0000
2000
3000
0000
0000
0000
0000
0000
0000
0002
0003
0000
0000
0000
0000
0000
0000
0000
0000
0000
0000
0000
0000
0000
1000
0000
0000
0000
0000
0000
0000
2000
3000
0000
0000
0000
0000
0000
0000
0000
,
2000
3000
0000
0000
0000
0000
2000
3000
0000
0000
0000
0000
0000
0000
0000
0000
0001
0000
0000
0000
0000
0000
0000
0002
0003
0000
0000
0000
0000
0000
0010
0000
0000
0000
0000
2000
3000
0000
0000
0000
0000
0000
0000
0002
0003
0000
0000
0000
0010
0000
0000
0000
0000
0000
2000
3000
0000
0000
0000
0000
0000
0000
0000
0000
,
0301
0000
0000
0000
0000
0000
0000
0000
0000
0000
0000
0000
0001
0000
0000
0000
0100
0000
1000
0000
0000
0000
0000
0000
0020
0030
0000
0000
0002
0003
0000
0000
0000
0000
0000
2000
0000
3000
0000
0000
0000
0000
0000
0002
0003
0000
0000
0000
0100
0000
0000
0000
0000
2002
0000
0000
0000
0000
0000
0000
3000
0003
0000
0000
,
0100
0000
0000
0000
0000
2000
3000
0000
0000
0000
0000
0000
0002
0003
0000
0000
0100
0000
0000
0002
0000
0003
0000
0002
0000
0000
0000
0000
0000
0000
0000
0000
0000
0000
0000
0000
0000
0000
0000
0000
0000
0000
0003
0000
0000
0000
0000
0000
0000
0000
0000
0000
0000
0000
0000
0000
0000
0000
0000
0000
0000
0000
0020
0000
,
0031
0200
0300
0000
0000
0000
0000
2000
3000
0000
0000
0200
0300
0000
0000
0020
0030
0000
0000
0000
0000
0000
0000
0000
0002
0000
0200
0300
0000
0000
0000
0000
,
0000
0000
0000
0000
0000
2000
3000
0000
0000
0000
0000
0000
0000
0000
0000
0000
2000
0000
0000
3000
0000
0020
0000
0000
0000
0000
0000
0000
0200
0330
0000
0000
,
0003
0000
0100
0000
0000
0000
0000
0000
0100
0000
0000
0000
0000
0000
0000
0000
1000
0000
0000
0000
0000
0000
0000
0000
2001
3100
0000
0000
0000
0000
0000
0000
,
2000
0000
0000
0200
0300
0000
0000
0000
0002
0000
0000
0000
0000
0000
0000
0000
0000
0000
0000
0000
0000
0000
0000
0000
0200
0300
0000
0000
0000
0000
0000
0000
,
3003
0000
0000
0000
2000
3100
0000
0000
0000
0000
0000
0000
0000
0000
0000
0000
1000
0000
0000
0000
0000
0000
0000
0000
0001
0000
0000
0000
0000
0000
0000
0000
,
2000
0000
0000
0001
,
0002
0003
0000
0000
,
0100
0000
0001
0000
,
0010
0000
0000
3010
,
0000
0000
1001
0001
,
0001
1001
1000
1000
,
1001
0001
0001
0010
,
0010
0010
0110
0100
,
0100
0100
0100
0000
,
2001
0000
0100
0000
,
0000
0000
0000
0000
,
0001
0000
0000
0000
,
0000
0001
0000
0000
,
0000
0100
0000
0000
,
0000
0001
0000
0000
,
0001
0000
0000
0000
,
0100
0000
0000
0000
,
3001
0000
0000
0000
;

//---------------dance-single - ----------------
#NOTES:
     dance-single:
     :
     Challenge:
     20:
     1.000,1.000,1.000,1.000,1.000,244.000,74.000,200.000,0.000,53.000:
2000
0000
0000
0000
0000
0000
0000
0000
0000
0000
0000
0000
0000
0000
0000
0000
0000
0000
0000
0000
0000
0000
0000
0000
0000
0000
0000
0000
0000
0000
0000
0000
0000
0000
0000
0000
0000
0000
0000
0000
0000
0000
0000
0000
0000
0000
0000
0000
3000
0000
0000
0000
0000
0000
0000
0000
0000
0000
0000
0000
0222
0000
0000
0333
0000
0000
0110
0000
0000
0000
0000
0000
0112
0000
0000
0003
0000
0000
0002
0000
0000
0003
0000
0000
0200
0000
0000
0000
0302
0000
0000
0000
0003
0000
0000
0000
0001
0000
0000
0000
0202
0000
0000
0000
0303
0000
0000
0000
0200
0000
0000
0000
0312
0000
0000
0000
0203
0000
0000
0000
0300
0000
0000
0000
0111
0000
0000
0000
0200
0000
0000
0000
0000
0000
0000
0000
0300
0000
0000
0000
0200
0000
0000
0000
1300
0000
0000
0000
0002
0000
0000
0000
0203
0000
0000
0000
0312
0000
0000
0000
0223
0000
0000
0000
0330
0000
0000
0000
0220
0000
0000
0000
0330
0000
0000
0000
0222
0000
0000
0000
0333
0000
0000
0000
0222
0000
0000
0000
0333
0000
0000
0000
,
0100
0100
0102
0013
0002
0003
0001
0000
0000
0000
0000
0100
0000
0200
0300
0000
0200
0300
0000
0002
0003
0000
0200
0300
0000
0000
0000
2000
3000
1000
2000
3000
0102
2003
3000
2000
3000
2000
3002
0103
0220
2000
0002
0000
0000
0000
0000
0000
,
0000
0000
0000
0000
0000
3333
1000
2010
3002
2003
3000
0000
0201
0300
0120
0030
0010
0000
0200
0020
0000
0000
0000
0000
0331
2000
3000
0100
1100
0000
0001
2200
3310
2202
3303
0220
0331
0000
2000
3000
0020
0000
0031
0022
0033
0100
2000
3200
,
1302
0000
0000
0000
2003
0000
0000
0000
3200
0000
0000
0000
0310
0000
0000
0000
0002
0000
0000
0000
0003
0000
0000
0000
2000
0000
0000
0000
3001
0000
0000
0000
0000
0000
0000
0000
0000
0000
0000
0000
0000
0000
0000
0000
0000
0000
0000
0000
2202
0000
0000
0000
0000
0000
3300
0000
0000
0000
0000
0000
0023
0000
0000
0000
0000
0000
2230
0000
0000
0000
0000
0000
3310
0000
0000
0000
0000
0000
1110
0000
0000
0000
0000
0000
0000
0000
0000
0000
0000
0000
0000
0000
0000
0000
0000
0000
1001
0000
0000
0000
0000
0000
0000
0000
2200
0000
0000
0000
0000
0000
0000
0000
0310
0000
0000
0000
0000
0000
0000
0000
3000
0000
0000
0000
0000
0000
0000
0000
0110
0000
0000
0000
0000
0000
0000
0000
0002
0000
0000
0000
0000
0000
0000
0000
0103
0000
0000
0000
0000
0000
0000
0000
0000
0000
0000
0000
0000
0000
0000
0000
0000
0000
0000
0000
0000
0000
0000
0000
0000
0000
0000
0000
0000
0000
0000
0000
2200
0000
0000
0000
0000
0000
0000
0000
3302
0000
0000
0000
0000
0000
0000
0000
,
2203
0000
3300
0000
0000
0000
0010
0000
0112
0010
0103
0000
0000
0000
0000
0000
0000
0000
0000
0000
0000
0000
0000
0000
1000
0000
0000
0220
0000
0000
0332
0000
0000
0003
0000
0000
0000
0000
0000
0000
0000
0000
0200
0000
0000
0300
0000
0000
,
1000
0000
0000
2200
0000
0000
3300
0000
0000
1100
0000
0000
0020
0000
0000
0000
0030
0000
0000
0000
0101
0000
0000
0000
0002
0000
0000
0000
0003
0000
0000
0000
0101
0000
0000
0000
0200
0000
0000
0000
0302
0000
0000
0000
0103
0000
0000
0000
,
0022
0233
0301
2000
0000
0000
0111
0002
0023
3030
0220
0330
,
0000
0000
0120
0031
0000
0221
0002
0000
0000
1000
0000
0000
,
0333
0100
0200
0001
0000
0000
0000
0000
0000
0320
0000
0032
,
0000
0000
0000
0100
0203
0000
0320
0030
0010
0120
0030
0000
,
0200
0300
0000
0100
0020
0032
0223
0332
0223
0330
0020
0030
,
0022
0033
0011
1002
0003
0001
0002
0003
0020
2000
0000
0000
,
0000
0000
0000
0000
0030
0000
0000
0000
0000
0002
0003
0000
,
3002
0003
0000
0101
0002
0003
1002
0000
0003
0000
0000
0000
,
2000
0000
0020
0032
0010
0000
0010
0000
0010
0010
0100
0100
,
3003
0000
0020
0030
0020
0000
1000
0000
0000
0001
0030
0002
,
0003
0002
0003
0020
0230
0320
0032
0003
0000
0101
0000
0000
,
0002
0000
0000
0003
0000
2000
3000
0000
0020
0030
0220
2332
,
0203
3300
2000
3000
2000
3000
2001
3200
0320
0230
0301
2200
,
3300
1102
2203
3300
0220
0330
1220
2330
3010
1120
0000
1030
,
0000
0000
0000
0200
0300
0100
1101
0000
0000
0001
0000
0000
,
0001
0000
0000
1001
0000
2000
3000
0020
0030
1002
0003
0000
,
1001
0000
0000
1001
0000
0000
0001
0000
2000
3012
0003
0000
,
0010
0000
2000
3012
0003
0000
0010
0200
0302
2103
3000
0000
,
0101
0200
0300
0110
0200
2300
3100
0002
0003
2200
3300
0002
,
0003
2200
3300
0000
2200
0300
0102
0200
0300
0000
0003
0000
,
0200
0300
0000
0200
3300
0000
2000
0000
0000
0000
0000
0000
,
0001
0000
0000
0000
,
0000
0001
0000
0000
,
0000
0000
3000
0100
0000
0000
0000
0000
0000
0000
0000
2000
,
0000
0000
0000
0001
0000
0000
0000
3000
2000
0000
0000
0000
,
0001
0000
0000
0000
3000
2000
0000
0000
0000
0000
0000
0000
,
0100
0000
3000
0000
0000
0000
0000
0000
0000
0000
0000
2000
,
3001
0000
0000
0000
;
